足球论坛

 找回密码
 注册
搜索
查看: 725|回复: 8

[1080P/I] 布兰妮Britney Spears-《Hold It Against Me》【1080P/MP4/百度云】 ! !

[复制链接]

7504

主题

7680

帖子

49万

积分

参谋

非凡-feifang

Rank: 8Rank: 8

UID
2
积分
495618
冰币
22126
威望
237

管理员

发表于 2017-11-15 21:43:09 | 显示全部楼层 |阅读模式 |        |
布兰妮Britney Spears-Hold It Against Me.mp4.jpg

游客,如果您要查看本帖隐藏内容请回复


General
Complete name                  : D:\360安全浏览器下载\布兰妮Britney Spears-Hold It Against Me.mp4
Format                         : MPEG-4
Format profile                 : Base Media
Codec ID                       : isom (isom/avc1)
File size                      : 491 MiB
Duration                       : 4 min 23 s
Overall bit rate mode          : Variable
Overall bit rate               : 15.6 Mb/s
Encoded date                   : UTC 2015-03-02 14:45:23
Tagged date                    : UTC 2015-03-02 14:45:23

Video
ID                             : 1
Format                         : AVC
Format/Info                    : Advanced Video Codec
Format profile                 : High@L4
Format settings                : CABAC / 6 Ref Frames
Format settings, CABAC         : Yes
Format settings, RefFrames     : 6 frames
Codec ID                       : avc1
Codec ID/Info                  : Advanced Video Coding
Duration                       : 4 min 23 s
Bit rate                       : 15.2 Mb/s
Maximum bit rate               : 100 Mb/s
Width                          : 1 920 pixels
Height                         : 1 080 pixels
Display aspect ratio           : 16:9
Frame rate mode                : Constant
Frame rate                     : 25.000 FPS
Color space                    : YUV
Chroma subsampling             : 4:2:0
Bit depth                      : 8 bits
Scan type                      : Progressive
Bits/(Pixel*Frame)             : 0.293
Stream size                    : 481 MiB (98%)
Writing library                : x264 core 80 r1373 4322f63
Encoding settings              : cabac=1 / ref=6 / deblock=1:0:0 / analyse=0x3:0x133 / me=hex / subme=7 / psy=1 / psy_rd=1.0:0.0 / mixed_ref=1 / me_range=16 / chroma_me=1 / trellis=1 / 8x8dct=1 / cqm=0 / deadzone=21,11 / fast_pskip=1 / chroma_qp_offset=-2 / threads=12 / sliced_threads=0 / nr=0 / decimate=1 / mbaff=0 / constrained_intra=0 / bframes=5 / b_pyramid=0 / b_adapt=0 / b_bias=0 / direct=3 / wpredb=1 / wpredp=2 / keyint=250 / keyint_min=25 / scenecut=40 / rc_lookahead=40 / rc=abr / mbtree=1 / bitrate=15211 / ratetol=1.0 / qcomp=0.60 / qpmin=10 / qpmax=51 / qpstep=4 / ip_ratio=1.40 / aq=1:1.00
Encoded date                   : UTC 2015-03-02 14:45:23
Tagged date                    : UTC 2015-03-02 14:45:27

Audio
ID                             : 2
Format                         : AAC
Format/Info                    : Advanced Audio Codec
Format profile                 : LC
Codec ID                       : mp4a-40-2
Duration                       : 4 min 23 s
Bit rate mode                  : Variable
Bit rate                       : 320 kb/s
Maximum bit rate               : 328 kb/s
Channel(s)                     : 2 channels
Channel positions              : Front: L R
Sampling rate                  : 48.0 kHz
Frame rate                     : 46.875 FPS (1024 SPF)
Compression mode               : Lossy
Stream size                    : 10.1 MiB (2%)
Encoded date                   : UTC 2015-03-02 14:45:27
Tagged date                    : UTC 2015-03-02 14:45:27



~
本人发布的资源如果发现失效,可以私信联系我,能修复的我尽量修复。

1

主题

4497

帖子

592

积分

大将

Rank: 4

UID
365067
积分
592
冰币
6339
威望
0
发表于 2017-11-16 06:30:31 | 显示全部楼层
谢谢搂主无私奉献
回复 支持 反对

使用道具 举报

1

主题

1712

帖子

27

积分

大兵

Rank: 1

UID
292368
积分
27
冰币
147
威望
0
发表于 2017-11-17 12:57:15 | 显示全部楼层
826y826y826y826y
回复 支持 反对

使用道具 举报

0

主题

958

帖子

852

积分

大将

Rank: 4

UID
426073
积分
852
冰币
9148
威望
0
发表于 2017-12-1 14:11:02 | 显示全部楼层
这是小甜甜的新歌吗?支一个。
回复 支持 反对

使用道具 举报

1

主题

1586

帖子

838

积分

大将

Rank: 4

UID
317487
积分
838
冰币
9004
威望
0
发表于 2017-12-2 04:20:23 | 显示全部楼层
好久无看小甜甜了。
回复 支持 反对

使用道具 举报

1

主题

1034

帖子

503

积分

大将

Rank: 4

UID
156765
积分
503
冰币
5368
威望
0
发表于 2017-12-2 12:19:29 | 显示全部楼层
谢谢楼主,下来看看
回复 支持 反对

使用道具 举报

1

主题

1160

帖子

353

积分

部将

Rank: 3Rank: 3

UID
41412
积分
353
冰币
3638
威望
0
发表于 2017-12-27 10:10:57 | 显示全部楼层
感谢分享好听的音乐
回复 支持 反对

使用道具 举报

5

主题

1326

帖子

127

积分

中将

Rank: 2

UID
294989
积分
127
冰币
1256
威望
0
发表于 2018-1-20 15:56:15 | 显示全部楼层
珍贵的歌曲啊!谢谢楼主啊!以前还没发现有这样的资源
回复 支持 反对

使用道具 举报

1

主题

1578

帖子

1439

积分

大将

Rank: 4

UID
339512
积分
1439
冰币
15512
威望
-1
发表于 2018-4-7 14:12:47 | 显示全部楼层
内容顶起 不错
回复 支持 反对

使用道具 举报

您需要登录后才可以回帖 登录 | 注册

本版积分规则

手机版|小黑屋|冰网 ( 粤ICP备10024810号-1 )

GMT+8, 2020-7-13 06:39

Powered by www.discuz.net Discuz! X3.4

© 2001-2012 Comsenz Inc sitemap a67 s80


本站影视音乐资源来自互联网免费共享,仅供交流学习之用,版权归作者本人所有,如果侵犯了您的权益,请通知我们,邮箱地址mail@aapig.com
快速回复 返回顶部 返回列表