足球论坛

 找回密码
 注册
搜索
查看: 3013|回复: 62

[1080P/I] 经典重现:少女时代白裙版《Dreams.Come.True》(梦想成真)[百度网盘]♚

  [复制链接]

2万

主题

2万

帖子

872万

积分

参谋

高清手机影视爱好者

Rank: 8Rank: 8

UID
3
积分
8723680
冰币
272153
威望
7491

顶帖达人精帖强人君临天下大富之家捐助会员宣传高手至尊贡献荣誉勋章绿钻勋章天尊大将军制作组版主网站编辑超级斑竹蓝钻勋章

发表于 2013-11-18 08:50:28 | 显示全部楼层 |阅读模式 |        |

www.aapig.com.cn少女时代.-.Dreams.Come.True_1080P_362M_HDTV-TS绝对高清珍藏.ts
    Format : MPEG-TS
    File size : 363 MiB
    Duration : 2mn 53s
    Overall bit rate : 17.6 Mbps
  Video #17
    ID : 17 (0x11)
    Menu ID : 1 (0x1)
    Format : MPEG Video
    Format version : Version 2
    Format profile : Main@High
    Format settings, BVOP : Yes
    Format settings, Matrix : Custom
    Codec ID : 2
    Duration : 2mn 53s
    Bit rate : 16.3 Mbps
    Maximum bit rate : 16.7 Mbps
    Width : 1 920 pixels
    Height : 1 088 pixels
    Display aspect ratio : 16:9
    Frame rate : 29.970 fps
    Color space : YUV
    Chroma subsampling : 4:2:0
    Bit depth : 8 bits
    Scan type : Interlaced
    Scan order : Top Field First
    Compression mode : Lossy
    Bits/(Pixel*Frame) : 0.260
    Stream size : 336 MiB (93%)
  Audio #20
    ID : 20 (0x14)
    Menu ID : 1 (0x1)
    Format : AC-3
    Format/Info : Audio Coding 3
    Mode extension : CM (complete main)
    Format settings, Endianness : Big
    Codec ID : 129
    Duration : 2mn 53s
    Bit rate mode : Constant
    Bit rate : 384 Kbps
    Channel(s) : 2 channels
    Channel positions : Front: L R
    Sampling rate : 48.0 KHz
    Bit depth : 16 bits
    Compression mode : Lossy
    Delay relative to video : -274ms
    Stream size : 7.93 MiB (2%)
    Language : Korean
  Menu #16
    ID : 16 (0x10)
    Menu ID : 1 (0x1)
    Duration : 2mn 53s
    List : 17 (0x11) (MPEG Video) / 20 (0x14) (AC-3, Korean)
    Language :  / Korean
    Maximum bit rate : 1883040






百度网盘下载地址
游客,如果您要查看本帖隐藏内容请回复


^
论坛每个月服务器的维护开支让管理员压力山大
有心捐助论坛的会员行动起来呀 →点击这里捐助并成为VIP
有疑问的会员请到→《会员咨询区》发帖咨询

如果你喜欢冰冰网,请→推荐AAPiG给您身边的同学好友

1

主题

1299

帖子

93

积分

中将

Rank: 2

UID
22978
积分
93
冰币
869
威望
-2
发表于 2013-11-18 20:16:52 | 显示全部楼层
好好 好好活好好好
回复 支持 反对

使用道具 举报

1

主题

392

帖子

12

积分

大兵

Rank: 1

UID
83284
积分
12
冰币
87
威望
0
发表于 2013-11-23 14:31:13 | 显示全部楼层
多谢分享
回复 支持 反对

使用道具 举报

1

主题

1633

帖子

123

积分

中将

Rank: 2

UID
24495
积分
123
冰币
1079
威望
0
发表于 2013-11-24 09:56:56 | 显示全部楼层
谢谢分享
走NB的路,让SB去说!
回复 支持 反对

使用道具 举报

0

主题

1210

帖子

-35

积分

平民

UID
21424
积分
-35
冰币
724
威望
-104
发表于 2013-11-24 20:14:22 | 显示全部楼层
ddddddddddddd
回复 支持 反对

使用道具 举报

0

主题

226

帖子

22

积分

大兵

Rank: 1

UID
20624
积分
22
冰币
181
威望
0
发表于 2013-11-25 21:34:09 来自手机 | 显示全部楼层
搞清我喜欢哈啊
回复 支持 反对

使用道具 举报

0

主题

292

帖子

20

积分

大兵

Rank: 1

UID
39407
积分
20
冰币
199
威望
0
发表于 2013-11-29 16:34:59 | 显示全部楼层
这个帖子不回对不起自己!!
回复 支持 反对

使用道具 举报

0

主题

474

帖子

46

积分

小将

Rank: 2

UID
586
积分
46
冰币
541
威望
-11
发表于 2013-12-15 13:55:57 | 显示全部楼层
支持作者,支持冰冰高清,好帖就是要顶出来的!
回复 支持 反对

使用道具 举报

0

主题

104

帖子

10

积分

大兵

Rank: 1

UID
48613
积分
10
冰币
98
威望
0
发表于 2013-12-15 18:59:55 | 显示全部楼层
这个真的还好
回复 支持 反对

使用道具 举报

头像被屏蔽

4

主题

231

帖子

20

积分

禁止发言

UID
30962
积分
20
冰币
208
威望
0

捐助会员

发表于 2013-12-28 15:40:50 | 显示全部楼层
提示: 作者被禁止或删除 内容自动屏蔽
回复 支持 反对

使用道具 举报

您需要登录后才可以回帖 登录 | 注册

本版积分规则

手机版|小黑屋|冰网 ( 粤ICP备10024810号-1 )

GMT+8, 2020-7-13 07:12

Powered by www.discuz.net Discuz! X3.4

© 2001-2012 Comsenz Inc sitemap a67 s80


本站影视音乐资源来自互联网免费共享,仅供交流学习之用,版权归作者本人所有,如果侵犯了您的权益,请通知我们,邮箱地址mail@aapig.com
快速回复 返回顶部 返回列表